Reply
Highlighted
Mar 30 2012
By: bigwang20031 First Son 1 posts
Offline

Problem with audio being out of sync

0 replies 920 views Edited Mar 30, 2012

I have some files I have been trying to watch. I stream them using PS3 Media Server but the audio always goes out of sync even if I copy them to the Playstation hard drive. They play fine on a computer though. I have no idea what could be causing this problem. Here is the mediainfo I could find on one of the files if it will help.

General

Format                         : Matroska

Format version                 : Version 2

File size                      : 637 MiB

Duration                       : 45mn 30s

Overall bit rate               : 1 958 Kbps

Writing application            : HandBrake 0.9.4

Video

ID                             : 1

Format                         : AVC

Format/Info                    : Advanced Video Codec

Format profile                 : Main@L3.0

Format settings, CABAC         : Yes

Format settings, ReFrames      : 2 frames

Codec ID                       : V_MPEG4/ISO/AVC

Duration                       : 45mn 30s

Bit rate                       : 1 500 Kbps

Width                          : 720 pixels

Height                         : 544 pixels

Display aspect ratio           : 4:3

Frame rate                     : 24.247 fps

Color space                    : YUV

Chroma subsampling             : 4:2:0

Bit depth                      : 8 bits

Scan type                      : Progressive

Bits/(Pixel*Frame)             : 0.158

Stream size                    : 479 MiB (75%)

Writing library                : x264 core 79

Encoding settings              : cabac=1 / ref=2 / deblock=1:0:0 / analyse=0x1:0x111 / me=hex / subme=6 / psy=1 / psy_rd=1.0:0.0 / mixed_ref=0 / me_range=16 / chroma_me=1 / trellis=0 / 8x8dct=0 / cqm=0 / deadzone=21,11 / chroma_qp_offset=-2 / threads=6 / nr=0 / decimate=1 / mbaff=0 / constrained_intra=0 / bframes=2 / b_pyramid=0 / b_adapt=1 / b_bias=0 / direct=1 / wpredb=0 / wpredp=2 / keyint=240 / keyint_min=24 / scenecut=40 / rc_lookahead=40 / rc=2pass / mbtree=1 / bitrate=1500 / ratetol=1.0 / qcomp=0.60 / qpmin=10 / qpmax=51 / qpstep=4 / cplxblur=20.0 / qblur=0.5 / ip_ratio=1.40 / aq=1:1.00

Language                       : English

Color primaries                : BT.601-6 525, BT.1358 525, BT.1700 NTSC, SMPTE 170M

Transfer characteristics       : BT.709-5, BT.1361

Matrix coefficients            : BT.601-6 525, BT.1358 525, BT.1700 NTSC, SMPTE 170M

Audio

ID                             : 2

Format                         : AC-3

Format/Info                    : Audio Coding 3

Mode extension                 : CM (complete main)

Codec ID                       : A_AC3

Duration                       : 45mn 30s

Bit rate mode                  : Constant

Bit rate                       : 448 Kbps

Channel(s)                     : 6 channels

Channel positions              : Front: L C R, Side: L R, LFE

Sampling rate                  : 48.0 KHz

Bit depth                      : 16 bits

Compression mode               : Lossy

Stream size                    : 146 MiB (23%)

Language                       : English

Text

ID                             : 3

Format                         : VobSub

Codec ID                       : S_VOBSUB

Codec ID/Info                  : The same subtitle format used on DVDs

Language                       : English

Message 1 of 1 (920 Views)
Reply
0 Likes